Loading...
Error

Скачать Раскрашенная кожа 2: Воскрешение / Painted Skin: The Resurrection (Уэршань / Wuershan) [2012, Фэнтези, боевик, триллер, драма, BDRip] [DVO] (den904, DeadSno) торрент без регистрации

Статистика раздачи
Размер:  2,06 GB   |    Зарегистрирован:  2 года   |    Скачан:  360 раз
Сидов:  1  [  0 KB/s  ]   Подробная статистика пиров
 
 
 
Автор Сообщение

leon030982

Стаж: 4 года

Сообщений: 16516

Поблагодарил(a): 8787

Поблагодарили: 43907

Украина

post 05-Окт-2012 15:53

[] 

Раскрашенная кожа 2: Воскрешение / Painted Skin: The Resurrection
Год выпуска: 2012
Страна: Китай
Жанр: Фэнтези, боевик, триллер, драма
Продолжительность: 02:11:32
Перевод: Любительский (двухголосый закадровый) den904, DeadSno
Перевод на русский: Den Shark @ ORKBOY
Cубтитры: нет
Режиссер: Уэршань / Wuershan

В ролях: Чжоу Сюнь , Чэнь Кунь, Чжао Вэй
Описание: Чтобы стать смертным демон должен прожить на земле несколько сот лет, но и этого недостаточно, чтобы ощутить весь спектр человеческих эмоций и подлинную экзистенциальную грусть. Для получения этих бонусов демон должен найти человека, готового пожертвовать собственными чувствами и собственной бессмертной душой.

РЕЛИЗ ГРУППЫ

Качество видео: BDRip (BD50)
Формат видео: AVI
Видео: XviD, 720x304 (2.37:1), 25 fps, 2102 kbps avg, 0.38 bit/pixel
Аудио: Русский, 48 KHz, MPEG layer 3, 128 kbps
Format : AVI
Format/Info : Audio Video Interleave
Format profile : OpenDML
File size : 2.06 GiB
Duration : 2h 11mn
Overall bit rate : 2 237 Kbps
Writing application : VirtualDubMod 1.5.10.2 (build 2540/release)
Writing library : VirtualDubMod build 2540/release
Video
ID : 0
Format : MPEG-4 Visual
Format profile : Advanced Simple@L5
Format settings, BVOP : No
Format settings, QPel : No
Format settings, GMC : No warppoints
Format settings, Matrix : Custom
Codec ID : XVID
Codec ID/Hint : XviD
Duration : 2h 11mn
Bit rate : 2 097 Kbps
Width : 720 pixels
Height : 304 pixels
Display aspect ratio : 2.35:1
Frame rate : 25.000 fps
Color space : YUV
Chroma subsampling : 4:2:0
Bit depth : 8 bits
Scan type : Progressive
Compression mode : Lossy
Bits/(Pixel*Frame) : 0.383
Stream size : 1.93 GiB (94%)
Writing library : XviD 1.0.2 (UTC 2004-08-29)
Audio
ID : 1
Format : MPEG Audio
Format version : Version 1
Format profile : Layer 3
Mode : Joint stereo
Mode extension : MS Stereo
Codec ID : 55
Codec ID/Hint : MP3
Duration : 2h 11mn
Bit rate mode : Constant
Bit rate : 128 Kbps
Channel(s) : 2 channels
Sampling rate : 48.0 KHz
Compression mode : Lossy
Stream size : 120 MiB (6%)
Alignment : Aligned on interleaves
Interleave, duration : 40 ms (1.00 video frame)
Interleave, preload duration : 504 ms

Download, view online/Скачать, смотреть онлайн

Cкачать "Раскрашенная.кожа.2.Воскр...torrent" с помощью MediaGet

Смотреть онлайн или скачать с помощью нового бесплатного торрент-клиента MediaGet

Скачать

Скачать Раскрашенная.кожа.2.Воскрешение.Painted.Skin.The.Resurrection.(Уэршань.Wuershan).[2012.Фэнтези.боевик.триллер.драма.BDRip].[DVO].(den904.DeadSno).torrent без регистрации
 ЗОЛОТАЯ РАЗДАЧА! СКАЧАННОЕ НЕ ЗАСЧИТЫВАЕТСЯ! 
Дата: Зарегистрирован   [ 2012-10-05 15:53 Тип: внутренний ] Как тут cкачать?

MAGNET ссылка

Скачать .torrent

11 KB

Статус: проверено DHT
Скачан: торрент - 360 раз, раздача полностью - 739 раз
Размер: 2,06 GB
Оценка:  5 (Голосов: 1)
Поблагодарили: 11
Поделиться ссылкой на эту раздачу с друзьями:
В контактеFacebookTwitterLivejournalМой МирLiveinternet
 


_________________
Вне форума
Показать сообщения:    

Текущее время: 21-Окт 11:01

Часовой пояс: GMT + 4



Вы не можете начинать темы
Вы не можете отвечать на сообщения
Вы не можете редактировать свои сообщения
Вы не можете удалять свои сообщения
Вы не можете голосовать в опросах
Вы не можете прикреплять файлы к сообщениям
Вы можете скачивать файлы