Loading...
Error

Скачать (Score) 300 спартанцев: Расцвет империи / 300: Rise Of An Empire (by Junkie XL) - [2014, FLAC (tracks + .cue), lossless] торрент без регистрации

Статистика раздачи
Размер:  411 MB   |    Зарегистрирован:  7 месяцев   |    Скачан:  9 раз
Сидов:  1  [  0 KB/s  ]   Подробная статистика пиров
 
 
 
Автор Сообщение

zizou510

Стаж: 1 год 11 месяцев

Сообщений: 26526

Поблагодарил(a): 2

Поблагодарили: 12960

post 17-Мар-2014 13:29

[] 

300 спартанцев: Расцвет империи / 300: Rise Of An Empire

Жанр: Soundtrack
| Год выпуска диска: 2014 | Страна: США | Источник: ffshrine
Аудиокодек: FLAC (tracks + .cue) | Битрейт аудио: lossless | Продолжительность: 01:07:58
01. Junkie XL - History Of Artemisia [09:34]
02. Junkie XL - Marathon [03:54]
03. Junkie XL - From Man To God King [03:50]
04. Junkie XL - Sparta [01:05]
05. Junkie XL - Artemisia's Childhood [03:42]
06. Junkie XL - Suicide [01:18]
07. Junkie XL - Left For Dead [01:32]
08. Junkie XL - Fog Battle [04:35]
09. Junkie XL - A Beach Of Bodies [04:17]
10. Junkie XL - Fire Battle [06:11]
11. Junkie XL - Xerxes' Thoughts [03:44]
12. Junkie XL - Queen Gorgo [03:59]
13. Junkie XL - Greeks On Attack [04:28]
14. Junkie XL - History Of The Greeks [07:04]
15. Junkie XL - Greeks Are Winning [06:04]
16. Junkie XL - End Credits [02:34]
Exact Audio Copy V1.0 beta 3 from 29. August 2011
EAC extraction logfile from 15. March 2014, 13:42
Junkie XL / 300 - Rise Of An Empire
Used drive : HL-DT-STBD-RE BH10LS38 Adapter: 2 ID: 0
Read mode : Secure
Utilize accurate stream : Yes
Defeat audio cache : Yes
Make use of C2 pointers : No
Read offset correction : 667
Overread into Lead-In and Lead-Out : No
Fill up missing offset samples with silence : Yes
Delete leading and trailing silent blocks : No
Null samples used in CRC calculations : Yes
Used interface : Native Win32 interface for Win NT & 2000
Gap handling : Appended to previous track
Used output format : User Defined Encoder
Selected bitrate : 768 kBit/s
Quality : High
Add ID3 tag : No
Command line compressor : C:\Program Files (x86)\Exact Audio Copy\FLAC\FLAC.EXE
Additional command line options : -8 -V -T "ARTIST=%artist%" -T "TITLE=%title%" -T "ALBUM=%albumtitle%" -T "DATE=%year%"
-T "TRACKNUMBER=%tracknr%" -T "GENRE=%genre%" -T "PERFORMER=%albuminterpret%" -T "COMPOSER=%composer%"
%haslyrics%--tag-from-file=LYRICS="%lyricsfile%"%haslyrics% -T "ALBUMARTIST=%albumartist%" -T "ALBUM ARTIST=%albumartist%"
-T "DISCNUMBER=%cdnumber%" -T "TOTALDISCS=%totalcds%" -T "TOTALTRACKS=%numtracks%" -T "COMMENT=%comment%"
%source% -o %dest%
TOC of the extracted CD
Track | Start | Length | Start sector | End sector
---------------------------------------------------------
1 | 0:00.00 | 9:34.68 | 0 | 43117
2 | 9:34.68 | 3:54.49 | 43118 | 60716
3 | 13:29.42 | 3:50.02 | 60717 | 77968
4 | 17:19.44 | 1:05.40 | 77969 | 82883
5 | 18:25.09 | 3:42.46 | 82884 | 99579
6 | 22:07.55 | 1:18.10 | 99580 | 105439
7 | 23:25.65 | 1:32.26 | 105440 | 112365
8 | 24:58.16 | 4:35.55 | 112366 | 133045
9 | 29:33.71 | 4:17.17 | 133046 | 152337
10 | 33:51.13 | 6:11.20 | 152338 | 180182
11 | 40:02.33 | 3:44.02 | 180183 | 196984
12 | 43:46.35 | 3:59.38 | 196985 | 214947
13 | 47:45.73 | 4:28.28 | 214948 | 235075
14 | 52:14.26 | 7:04.49 | 235076 | 266924
15 | 59:19.00 | 6:04.39 | 266925 | 294263
16 | 65:23.39 | 2:34.62 | 294264 | 305875
Track 1
Filename C:\Rips\01 - History Of Artemisia.wav
Pre-gap length 0:00:02.00
Peak level 98.8 %
Extraction speed 1.4 X
Track quality 100.0 %
Test CRC 0B1817F0
Copy CRC 0B1817F0
Track not present in AccurateRip database
Copy OK
Track 2
Filename C:\Rips\02 - Marathon.wav
Peak level 98.8 %
Extraction speed 1.5 X
Track quality 100.0 %
Test CRC 670241A0
Copy CRC 670241A0
Track not present in AccurateRip database
Copy OK
Track 3
Filename C:\Rips\03 - From Man To God King.wav
Peak level 98.8 %
Extraction speed 1.6 X
Track quality 100.0 %
Test CRC 5F5FAD9B
Copy CRC 5F5FAD9B
Track not present in AccurateRip database
Copy OK
Track 4
Filename C:\Rips\04 - Sparta.wav
Peak level 98.8 %
Extraction speed 1.2 X
Track quality 100.0 %
Test CRC A2249CBD
Copy CRC A2249CBD
Track not present in AccurateRip database
Copy OK
Track 5
Filename C:\Rips\05 - Artemisia's Childhood.wav
Peak level 98.8 %
Extraction speed 1.7 X
Track quality 100.0 %
Test CRC 38F4EFEC
Copy CRC 38F4EFEC
Track not present in AccurateRip database
Copy OK
Track 6
Filename C:\Rips\06 - Suicide.wav
Peak level 98.8 %
Extraction speed 1.4 X
Track quality 100.0 %
Test CRC 686BCA14
Copy CRC 686BCA14
Track not present in AccurateRip database
Copy OK
Track 7
Filename C:\Rips\07 - Left For Dead.wav
Peak level 98.8 %
Extraction speed 1.5 X
Track quality 100.0 %
Test CRC 319A522F
Copy CRC 319A522F
Track not present in AccurateRip database
Copy OK
Track 8
Filename C:\Rips\08 - Fog Battle.wav
Peak level 98.8 %
Extraction speed 1.9 X
Track quality 100.0 %
Test CRC CCA4D5DC
Copy CRC CCA4D5DC
Track not present in AccurateRip database
Copy OK
Track 9
Filename C:\Rips\09 - A Beach Of Bodies.wav
Peak level 98.8 %
Extraction speed 2.0 X
Track quality 100.0 %
Test CRC 82DF76E6
Copy CRC 82DF76E6
Track not present in AccurateRip database
Copy OK
Track 10
Filename C:\Rips\10 - Fire Battle.wav
Peak level 98.8 %
Extraction speed 2.2 X
Track quality 100.0 %
Test CRC 2F58264D
Copy CRC 2F58264D
Track not present in AccurateRip database
Copy OK
Track 11
Filename C:\Rips\11 - Xerxes' Thoughts.wav
Peak level 98.8 %
Extraction speed 2.2 X
Track quality 100.0 %
Test CRC C9CF22B8
Copy CRC C9CF22B8
Track not present in AccurateRip database
Copy OK
Track 12
Filename C:\Rips\12 - Queen Gorgo.wav
Peak level 98.8 %
Extraction speed 2.3 X
Track quality 100.0 %
Test CRC 536F3CBA
Copy CRC 536F3CBA
Track not present in AccurateRip database
Copy OK
Track 13
Filename C:\Rips\13 - Greeks On Attack.wav
Peak level 98.8 %
Extraction speed 2.4 X
Track quality 100.0 %
Test CRC C242E6DA
Copy CRC C242E6DA
Track not present in AccurateRip database
Copy OK
Track 14
Filename C:\Rips\14 - History Of The Greeks.wav
Peak level 98.8 %
Extraction speed 2.4 X
Track quality 99.9 %
Test CRC 8103CCCC
Copy CRC 8103CCCC
Track not present in AccurateRip database
Copy OK
Track 15
Filename C:\Rips\15 - Greeks Are Winning.wav
Peak level 98.8 %
Extraction speed 2.5 X
Track quality 99.9 %
Test CRC ACBFC200
Copy CRC ACBFC200
Track not present in AccurateRip database
Copy OK
Track 16
Filename C:\Rips\16 - End Credits.wav
Peak level 100.0 %
Extraction speed 2.4 X
Track quality 100.0 %
Test CRC 4D301401
Copy CRC 4D301401
Track not present in AccurateRip database
Copy OK
None of the tracks are present in the AccurateRip database
No errors occurred
End of status report
==== Log checksum 7123F0E2019AB2D80FACD2194B96F68A26B816DB4AE1D08BD1733ED18C42C226 ====
REM GENRE Soundtrack
REM DATE 2014
REM DISCID CC0FEE10
REM COMMENT "ExactAudioCopy v1.0b3"
FILE "01 - History Of Artemisia.wav" WAVE
TRACK 01 AUDIO
FLAGS DCP
INDEX 01 00:00:00
FILE "02 - Marathon.wav" WAVE
TRACK 02 AUDIO
FLAGS DCP
INDEX 01 00:00:00
FILE "03 - From Man To God King.wav" WAVE
TRACK 03 AUDIO
FLAGS DCP
INDEX 01 00:00:00
FILE "04 - Sparta.wav" WAVE
TRACK 04 AUDIO
FLAGS DCP
INDEX 01 00:00:00
FILE "05 - Artemisia's Childhood.wav" WAVE
TRACK 05 AUDIO
FLAGS DCP
INDEX 01 00:00:00
FILE "06 - Suicide.wav" WAVE
TRACK 06 AUDIO
FLAGS DCP
INDEX 01 00:00:00
FILE "07 - Left For Dead.wav" WAVE
TRACK 07 AUDIO
FLAGS DCP
INDEX 01 00:00:00
FILE "08 - Fog Battle.wav" WAVE
TRACK 08 AUDIO
FLAGS DCP
INDEX 01 00:00:00
FILE "09 - A Beach Of Bodies.wav" WAVE
TRACK 09 AUDIO
FLAGS DCP
INDEX 01 00:00:00
FILE "10 - Fire Battle.wav" WAVE
TRACK 10 AUDIO
FLAGS DCP
INDEX 01 00:00:00
FILE "11 - Xerxes' Thoughts.wav" WAVE
TRACK 11 AUDIO
FLAGS DCP
INDEX 01 00:00:00
FILE "12 - Queen Gorgo.wav" WAVE
TRACK 12 AUDIO
INDEX 01 00:00:00
FILE "13 - Greeks On Attack.wav" WAVE
TRACK 13 AUDIO
FLAGS DCP
INDEX 01 00:00:00
FILE "14 - History Of The Greeks.wav" WAVE
TRACK 14 AUDIO
FLAGS DCP
INDEX 01 00:00:00
FILE "15 - Greeks Are Winning.wav" WAVE
TRACK 15 AUDIO
FLAGS DCP
INDEX 01 00:00:00
FILE "16 - End Credits.wav" WAVE
TRACK 16 AUDIO
FLAGS DCP
INDEX 01 00:00:00


Download, view online/Скачать, смотреть онлайн

Cкачать "300.спартанцев.Расцвет.им...torrent" с помощью MediaGet

Смотреть онлайн или скачать с помощью нового бесплатного торрент-клиента MediaGet

Скачать

Скачать 300.спартанцев.Расцвет.империи.300.Rise.Of.An.Empire.(by.Junkie.XL).-.[2014.FLAC.(tracks.+.cue).lossless].torrent без регистрации
 ЗОЛОТАЯ РАЗДАЧА! СКАЧАННОЕ НЕ ЗАСЧИТЫВАЕТСЯ! 
Дата: Зарегистрирован   [ 2014-03-17 13:29 Тип: внутренний ] Как тут cкачать?

MAGNET ссылка

Скачать .torrent

18 KB

Статус: проверено DHT
Скачан: торрент - 9 раз, раздача полностью - 3 раз
Размер: 411 MB
Оценка:  - (Голосов: 0)
Поблагодарили: 0
Поделиться ссылкой на эту раздачу с друзьями:
В контактеFacebookTwitterLivejournalМой МирLiveinternet
 

Вне форума
Показать сообщения:    

Текущее время: 20-Окт 21:53

Часовой пояс: GMT + 4



Вы не можете начинать темы
Вы не можете отвечать на сообщения
Вы не можете редактировать свои сообщения
Вы не можете удалять свои сообщения
Вы не можете голосовать в опросах
Вы не можете прикреплять файлы к сообщениям
Вы можете скачивать файлы