Loading...
Error

Скачать [MOL] (VA, Народная музыка и песни) Potcova de Aur (Muzică Populară) [2008, FLAC (image+.cue), lossless] торрент без регистрации

Статистика раздачи
Размер:  310 MB   |    Зарегистрирован:  2 года 6 месяцев   |    Скачан:  33 раза
Сидов:  1  [  0 KB/s  ]   Подробная статистика пиров
 
 
 
Автор Сообщение

onealoner

Стаж: 4 года 9 месяцев

Сообщений: 49928

Поблагодарил(a): 6009

Поблагодарили: 27922

Европейский Союз

post 31-Мар-2012 21:28

[] 

Various Artists - Potcova de Aur (Muzică Populară)
Жанр: Folklor
Страна-производитель диска: Moldova
Год издания диска: 2008
Издатель (лейбл): MusicMaster
Страна: Moldova
Аудиокодек: FLAC (*.flac)
Тип рипа: image+.cue
Битрейт аудио: lossless
Продолжительность: 49:04
Источник (релизер): рип собственного диска
Наличие сканов в содержимом раздачи: да
[03:26] 01. Mariana Tudoreanu - Iubiti-o mama
[02:30] 02. Ansamblul Stefan Voda - Lin-pelin
[02:22] 03. Cezara-Elena - Azi e zi de sarbatoare
[02:11] 04. Igor Cuciuc - La poarta orasului
[01:50] 05. Lenuta Gheorhita - Ce vrei bide de la mine
[02:10] 06. Igor Rusu - Din Soroca la Hotin
[02:52] 07. Valentina Cojocaru - Prieteni dragi
[02:25] 08. Constantin Rotaru - Busuioc moldovenesc
[03:40] 09. Doina Arseni - La multi ani
[04:00] 10. Mihai Ciobanu - Inimioara nu ofta
[02:33] 11. Maria Iliut - Batuta ca la Crasna
[03:46] 12. Sirorile Osoianu - Femeia vinduta
[02:28] 13. Ioana Capraru - Ma vorbesc in sat de ciuda
[03:42] 14. Nicolae Glib - Azi e hram la mine-n sat
[02:47] 15. Tamarica Costritchi - Jicati sirba ca la noi
[03:54] 16. Zinaida Julea - Asta-i nunta de boieri
[02:20] 17. Orchestra minicipala Fratilor Advahov - Batuta
Exact Audio Copy V1.0 beta 1 from 15. November 2010
Отчёт EAC об извлечении, выполненном 20. августа 2011, 16:14
Various / Potcoava de Aur
Дисковод: HL-DT-STDVD-RAM GH22NP21 Adapter: 0 ID: 0
Режим чтения : Достоверность
Использование точного потока : Да
Отключение кэша аудио : Да
Использование указателей C2 : Нет
Коррекция смещения при чтении : 102
Способность читать области Lead-in и Lead-out : Нет
Заполнение пропущенных сэмплов тишиной : Да
Удаление блоков с тишиной в начале и конце : Нет
При вычислениях CRC использовались нулевые сэмплы : Да
Интерфейс : Встроенный Win32-интерфейс для Win NT/2000
Выходной формат : Пользовательский кодировщик
Выбранный битрейт : 1024 kBit/s
Качество : Высокий
Добавление ID3-тэга : Нет
Утилита сжатия : C:\Program Files\Exact Audio Copy\FLAC\FLAC.EXE
Дополнительные параметры : -8 -V -T "ARTIST=%a" -T "TITLE=%t" -T "ALBUM=%g" -T "DATE=%y" -T "TRACKNUMBER=%n" -T "GENRE=%m" -T "COMMENT=%e" %j--picture="%i"%j %s -o %d
TOC извлечённого CD
Трек | Старт | Длительность | Начальный сектор | Конечный сектор
---------------------------------------------------------------------
1 | 0:00.00 | 3:26.52 | 0 | 15501
2 | 3:26.52 | 2:30.67 | 15502 | 26818
3 | 5:57.44 | 2:22.12 | 26819 | 37480
4 | 8:19.56 | 2:11.22 | 37481 | 47327
5 | 10:31.03 | 1:50.32 | 47328 | 55609
6 | 12:21.35 | 2:10.41 | 55610 | 65400
7 | 14:32.01 | 2:52.03 | 65401 | 78303
8 | 17:24.04 | 2:25.28 | 78304 | 89206
9 | 19:49.32 | 3:40.58 | 89207 | 105764
10 | 23:30.15 | 4:00.27 | 105765 | 123791
11 | 27:30.42 | 2:33.36 | 123792 | 135302
12 | 30:04.03 | 3:46.29 | 135303 | 152281
13 | 33:50.32 | 2:28.56 | 152282 | 163437
14 | 36:19.13 | 3:42.47 | 163438 | 180134
15 | 40:01.60 | 2:47.34 | 180135 | 192693
16 | 42:49.19 | 3:54.11 | 192694 | 210254
17 | 46:43.30 | 2:20.73 | 210255 | 220827
Характеристики диапазона извлечения и сообщения об ошибках
Выбранный диапазон
Имя файла D:\Раздачи на torrents.ru\VA - Potcoava de Aur,2008(lossless)\Various - Potcoava de Aur.wav
Пиковый уровень 100.0 %
0.1 X
Качество диапазона 100.0 %
CRC теста AAC8EA39
CRC копии AAC8EA39
Копирование... OK
Ошибок не произошло
AccurateRip: сводка
Трек 1 нет в базе данных
Трек 2 нет в базе данных
Трек 3 нет в базе данных
Трек 4 нет в базе данных
Трек 5 нет в базе данных
Трек 6 нет в базе данных
Трек 7 нет в базе данных
Трек 8 нет в базе данных
Трек 9 нет в базе данных
Трек 10 нет в базе данных
Трек 11 нет в базе данных
Трек 12 нет в базе данных
Трек 13 нет в базе данных
Трек 14 нет в базе данных
Трек 15 нет в базе данных
Трек 16 нет в базе данных
Трек 17 нет в базе данных
Ни одного трека нет в базе AccurateRip
Конец отчёта

Download, view online/Скачать, смотреть онлайн

Cкачать "(VA.Народная.музыка.и.пес...torrent" с помощью MediaGet

Смотреть онлайн или скачать с помощью нового бесплатного торрент-клиента MediaGet

Скачать

Скачать (VA.Народная.музыка.и.песни).Potcova.de.Aur.(Muzică.Populară).[2008.FLAC.(image+.cue).lossless].torrent без регистрации
 ЗОЛОТАЯ РАЗДАЧА! СКАЧАННОЕ НЕ ЗАСЧИТЫВАЕТСЯ! 
Дата: Зарегистрирован   [ 2012-03-31 21:28 Тип: внутренний ] Как тут cкачать?

MAGNET ссылка

Скачать .torrent

13 KB

Статус: проверено DHT
Скачан: торрент - 33 раз, раздача полностью - 4 раз
Размер: 310 MB
Оценка:  - (Голосов: 0)
Поблагодарили: 0
Поделиться ссылкой на эту раздачу с друзьями:
В контактеFacebookTwitterLivejournalМой МирLiveinternet
 


_________________
Вне форума
Показать сообщения:    

Текущее время: 31-Окт 07:55

Часовой пояс: GMT + 4



Вы не можете начинать темы
Вы не можете отвечать на сообщения
Вы не можете редактировать свои сообщения
Вы не можете удалять свои сообщения
Вы не можете голосовать в опросах
Вы не можете прикреплять файлы к сообщениям
Вы можете скачивать файлы